<?xml version="1.0" standalone="no"?>
<!DOCTYPE svg PUBLIC "-//W3C//DTD SVG 1.1//EN" "http://www.w3.org/Graphics/SVG/1.1/DTD/svg11.dtd" >
<svg xmlns="http://www.w3.org/2000/svg">
<metadata>
Created by FontForge 20120731 at Wed Jun 14 13:48:14 2017
 By admin
</metadata>
<defs>
<font id="iconfont" horiz-adv-x="1024" >
  <font-face 
    font-family="iconfont"
    font-weight="500"
    font-stretch="normal"
    units-per-em="1024"
    panose-1="2 0 6 3 0 0 0 0 0 0"
    ascent="896"
    descent="-128"
    x-height="792"
    bbox="0 -128.05 1265 896"
    underline-thickness="0"
    underline-position="0"
    unicode-range="U+0078-E615"
  />
<missing-glyph 
 />
    <glyph glyph-name=".notdef" 
 />
    <glyph glyph-name=".notdef" 
 />
    <glyph glyph-name=".null" horiz-adv-x="0" 
 />
    <glyph glyph-name="nonmarkingreturn" horiz-adv-x="341" 
 />
    <glyph glyph-name="x" unicode="x" horiz-adv-x="1001" 
d="M281 543q-27 -1 -53 -1h-83q-18 0 -36.5 -6t-32.5 -18.5t-23 -32t-9 -45.5v-76h912v41q0 16 -0.5 30t-0.5 18q0 13 -5 29t-17 29.5t-31.5 22.5t-49.5 9h-133v-97h-438v97zM955 310v-52q0 -23 0.5 -52t0.5 -58t-10.5 -47.5t-26 -30t-33 -16t-31.5 -4.5q-14 -1 -29.5 -0.5
t-29.5 0.5h-32l-45 128h-439l-44 -128h-29h-34q-20 0 -45 1q-25 0 -41 9.5t-25.5 23t-13.5 29.5t-4 30v167h911zM163 247q-12 0 -21 -8.5t-9 -21.5t9 -21.5t21 -8.5q13 0 22 8.5t9 21.5t-9 21.5t-22 8.5zM316 123q-8 -26 -14 -48q-5 -19 -10.5 -37t-7.5 -25t-3 -15t1 -14.5
t9.5 -10.5t21.5 -4h37h67h81h80h64h36q23 0 34 12t2 38q-5 13 -9.5 30.5t-9.5 34.5q-5 19 -11 39h-368zM336 498v228q0 11 2.5 23t10 21.5t20.5 15.5t34 6h188q31 0 51.5 -14.5t20.5 -52.5v-227h-327z" />
    <glyph glyph-name="nav-notification" unicode="&#xe601;" 
d="M415 -31h195q0 -45 -26 -71t-71.5 -26t-71.5 26t-26 71v0zM122 18q-30 0 -51.5 21.5t-21.5 52t21.5 52t51.5 21.5t51.5 21t21.5 52v341q0 57 22.5 105t58 77.5t78 45.5t85.5 16q0 30 21.5 51.5t51.5 21.5t51.5 -21.5t21.5 -51.5q42 0 84.5 -16t78.5 -45t58.5 -77
t22.5 -106v-341q0 -31 21.5 -52t51.5 -21t51.5 -21.5t21.5 -52t-21.5 -52t-51.5 -21.5h-780z" />
    <glyph glyph-name="nav-search" unicode="&#xe602;" 
d="M750 475q0 130 -91 222t-218.5 92t-218.5 -92t-91 -222t91 -222.5t218.5 -92.5t218.5 92.5t91 222.5v0zM857 475v-1q0 -60 -26 -135.5t-63 -122.5l212 -217q17 -18 17 -42q0 -25 -17.5 -43t-42.5 -18t-43 18l-212 218q-45 -33 -115.5 -56t-125.5 -23v0q-113 0 -209 56.5
t-152 153.5t-56 211.5t56 211.5t152 153.5t208.5 56.5t208.5 -56.5t152 -153.5t56 -211z" />
    <glyph glyph-name="like-small" unicode="&#xe605;" 
d="M736 782q95 0 163 -68q28 -29 48 -77.5t20 -88.5v-1v-1q0 -41 -20 -89.5t-48 -77.5l-382 -391q-2 -2 -5 -2t-5 2l-382 392q-28 28 -48 76.5t-20 88.5v2q0 97 68 167q28 28 75.5 48t87.5 20v0q84 0 151 -67l29 -35l45 -54l44 55l29 37q64 64 150 64zM736 839
q-111 0 -193 -83l-31 -40l-31 37q-84 86 -193 86q-119 0 -204 -86q-35 -35 -59.5 -95t-24.5 -110v-1.5v-1.5q0 -49 24.5 -109.5t59.5 -95.5l383 -392q18 -19 45 -19t45 19l383 392q35 35 59.5 95.5t24.5 109.5v2v1q0 49 -24.5 109.5t-59.5 95.5q-35 36 -94.5 61t-109.5 25v0
z" />
    <glyph glyph-name="comment-small" unicode="&#xe606;" 
d="M885 -71q-33 0 -66.5 5t-76.5 18t-86.5 41t-79.5 69q-5 -1 -17 -3q-47 -9 -73 -9q-141 0 -252 50t-172.5 139.5t-61.5 203.5q0 116 61.5 206t172.5 140t252 50q149 0 272.5 -52t194.5 -143t71 -201q0 -92 -52 -173t-148 -136q1 -2 0.5 -4.5t0 -12t3.5 -19.5
q19 -69 112 -112q17 -8 17 -26q0 -10 -7 -18.5t-17 -9.5q-19 -3 -48 -3zM587 121q14 0 23 -10q82 -104 223 -122q-62 57 -65 126q-2 51 28 68q82 48 126.5 116t44.5 144q0 92 -64.5 170t-175 123.5t-241.5 45.5q-189 0 -309 -94.5t-120 -244.5q0 -148 120 -242t309 -94
q20 0 63 8q22 4 34 6h4v0z" />
    <glyph glyph-name="share-qzone" unicode="&#xe607;" horiz-adv-x="1077" 
d="M716 576l-149 301q-9 19 -28 19t-28 -19l-149 -301l-334 -48q-21 -3 -26.5 -21t9.5 -32q27 -26 87 -85t107 -104.5l47 -45.5l-57 -331q-4 -20 11.5 -31t34.5 -2l298 157l298 -157q19 -9 34 2t12 32q-1 1 -19 106.5t-26 153.5q49 16 60 30l-63 -15q-140 -24 -288 -26.5
t-264 18.5q47 34 132 92.5t141 99t83 65.5q-108 14 -415 31q49 22 167.5 30t244 2t202.5 -23q-31 -24 -58 -44.5t-55 -40t-46.5 -32.5t-49 -33t-44 -29t-51 -33t-51.5 -33q46 -10 98.5 -14.5t134.5 -7t115 -4.5v9l-5 28q181 176 241 235q15 14 9 32t-26 21l-334 48v0z" />
    <glyph glyph-name="share-wechat" unicode="&#xe608;" horiz-adv-x="1264" 
d="M1011 289q-17 0 -30.5 13.5t-13.5 30.5q0 16 13.5 29.5t30.5 13.5q24 0 39.5 -13t15.5 -30q0 -18 -15.5 -31t-39.5 -13zM767 289q-16 0 -30 13.5t-14 30.5q0 16 14 29.5t30 13.5q24 0 40 -13t16 -30q0 -18 -16 -31t-40 -13zM1265 234q0 86 -52 159.5t-139 116t-185 42.5
q-103 0 -189.5 -42.5t-136.5 -116t-50 -160t50 -159.5t136.5 -115.5t189.5 -42.5q44 0 133 22l121 -66l-33 110q71 52 113 116.5t42 135.5zM299 600q-27 0 -47 15.5t-20 39.5t20 39.5t47 15.5q24 0 39.5 -15t15.5 -40t-15.5 -40t-39.5 -15zM608 710q25 0 40 -15t15 -40
t-15 -40t-40 -15q-26 0 -46 15.5t-20 39.5t20 39.5t46 15.5zM846 591q19 0 42 -3q-18 87 -82.5 157.5t-160.5 110.5t-203 40q-120 0 -221.5 -49.5t-161 -135t-59.5 -188.5q0 -173 177 -296l-44 -131l154 76q8 -1 31.5 -6t33 -6.5t27.5 -4.5t32.5 -4t30.5 -1q20 0 42 2
q-14 45 -14 92q0 94 49.5 174t136.5 126.5t190 46.5v0z" />
    <glyph glyph-name="share-weibo" unicode="&#xe609;" horiz-adv-x="1204" 
d="M454 145q-15 -23 -42 -32t-50 2q-23 10 -29 33.5t8.5 46t40.5 31.5t49 -1q24 -10 30.5 -33.5t-7.5 -46.5v0zM526 363q-71 19 -141.5 -12t-101.5 -94q-32 -64 -4.5 -126.5t98.5 -85.5q75 -24 151 8t106 101q30 68 -2 129t-106 80zM983 501q6 -1 13 -1q12 0 23 8t14 19
q8 24 8 48.5t-11.5 55t-28.5 49.5q-19 21 -53 36t-62 15q-17 0 -33 -3q-13 -3 -22 -14.5t-9 -24.5q0 -17 11.5 -28.5t27.5 -11.5q5 0 9 1q43 9 72 -23.5t16 -74.5q-2 -6 -2 -13q0 -12 8 -23t19 -15zM1123 790q-40 44 -109 75t-128 31q-34 0 -67 -7v0q-15 -4 -25.5 -17
t-10.5 -28q0 -19 13.5 -33t33.5 -14q4 0 8 1q24 5 48 5q42 0 91 -22t77 -53q24 -27 41 -71.5t17 -81.5q0 -36 -11 -70q-2 -7 -2 -14q0 -14 9.5 -27t22.5 -17q18 -6 35 2.5t23 26.5v1q16 48 16 98q0 51 -24 114t-58 101v0zM506 -11.5q-98 -9.5 -184.5 14t-140 73.5t-60 114.5
t36.5 124t123 99.5t178 50t184.5 -13.5t140 -73.5t60 -114.5t-36.5 -124t-123 -100t-178 -50zM905 407q-8 2 -11.5 3.5t-8 5.5t-3 9t2.5 14q31 81 1 127q-31 44 -103.5 43.5t-165.5 -41.5v-1q-31 -13 -30 7q0 3 1 8q30 103 -13 149q-50 53 -166 5t-229 -168
q-86 -91 -133 -183.5t-47 -174.5q0 -76 43.5 -141t115.5 -107.5t162 -66t184 -23.5q118 0 223 34t174 87t109 116t40 124q0 66 -43 110t-103 64v0z" />
    <glyph glyph-name="like-fill-small" unicode="&#xe60a;" 
d="M736 839q-111 0 -193 -83l-31 -40l-31 37q-84 86 -193 86q-119 0 -204 -86q-35 -35 -59.5 -95t-24.5 -110v-1.5v-1.5q0 -49 24.5 -109.5t59.5 -95.5l383 -392q18 -19 45 -19t45 19l383 392q35 35 59.5 95.5t24.5 109.5v2v1q0 49 -24.5 109.5t-59.5 95.5q-35 36 -94.5 61
t-109.5 25v0z" />
    <glyph glyph-name="like-fill-large" unicode="&#xe60b;" 
d="M512 -58q-35 0 -60 24l-365 361q-36 35 -61.5 95.5t-25.5 110.5v1q0 121 88 207q36 35 97 60t112 25h1q113 0 201 -85l12 -15l14 17q85 83 201 83q123 0 210 -85q37 -35 62.5 -96t25.5 -111v0q0 -122 -88 -207l-364 -361q-11 -10 -28.5 -17t-31.5 -7v0z" />
    <glyph glyph-name="comment-large" unicode="&#xe60c;" 
d="M886 -58q-32 0 -65.5 5t-76.5 17.5t-86.5 40.5t-79.5 68q-5 -1 -20 -3q-46 -9 -72 -9q-140 0 -250 48t-171 135t-61 198q0 112 61 199.5t171 136t250 48.5q148 0 270.5 -50.5t193 -139t70.5 -194.5q0 -89 -51.5 -167.5t-145.5 -131.5l-0.5 -1t-1 -2.5t-0.5 -4t-0.5 -5.5
t0 -6t1 -7.5t1.5 -9.5q2 -10 7.5 -22t18 -29t36 -35t54.5 -32l71 -33l-77 -11q-21 -3 -43 -3h-4zM597 123l9 -10q89 -109 243 -123q-30 24 -48 53.5t-22 46t-5 31.5q-2 46 26 62q83 47 128.5 115t45.5 144q0 92 -65.5 169.5t-178 123t-244.5 45.5q-192 0 -314 -94.5
t-122 -243.5q0 -148 122 -241.5t314 -93.5q21 0 64 8q17 4 34 6z" />
    <glyph glyph-name="like-large" unicode="&#xe60d;" 
d="M512 -58q-35 0 -60 24l-365 361q-36 35 -61.5 95.5t-25.5 110.5v1q0 121 88 207q36 35 97 60t112 25h1q113 0 201 -85l12 -15l14 17q85 83 201 83q123 0 210 -85q37 -35 62.5 -96t25.5 -111v0q0 -122 -88 -207l-364 -361q-11 -10 -28.5 -17t-31.5 -7v0zM298 780h-1
q-43 0 -94.5 -21.5t-82.5 -51.5q-30 -29 -51.5 -80t-21.5 -93v0q0 -102 73 -174l365 -361q11 -10 27 -10t27 10l365 361q73 72 73 173.5t-73 173.5q-31 30 -82.5 51.5t-94.5 21.5h-1q-97 0 -168 -70l-45 -57l-48 56q-73 71 -167 71z" />
    <glyph glyph-name="light" unicode="&#xe60e;" 
d="M271 570q-12 12 -12 28t11.5 27.5t27.5 11.5t28 -12l25 -24q11 -12 11 -28t-11.5 -27.5t-27.5 -11.5t-28 11zM350.5 222.5q11.5 -11.5 11.5 -27.5t-11 -28l-25 -24q-12 -12 -28 -12t-27.5 11.5t-11.5 27.5t12 28l24 25q12 11 28 11t27.5 -11.5zM753 198q12 -12 12 -28
t-11.5 -27.5t-27.5 -11.5t-28 12l-25 24q-11 12 -11 28t11.5 27.5t27.5 11.5t28 -11zM673.5 545.5q-11.5 11.5 -11.5 27.5t11 28l25 24q12 12 28 12t27.5 -11.5t11.5 -27.5t-12 -28l-24 -25q-12 -11 -28 -11t-27.5 11.5zM245 345h-35q-16 0 -27.5 11.5t-11.5 27.5t11.5 27.5
t27.5 11.5h35q16 0 27.5 -11.5t11.5 -27.5t-11.5 -27.5t-27.5 -11.5zM551 117v-35q0 -16 -11.5 -27.5t-27.5 -11.5t-27.5 11.5t-11.5 27.5v35q0 16 11.5 27.5t27.5 11.5t27.5 -11.5t11.5 -27.5v0zM853 384q0 -16 -11.5 -27.5t-27.5 -11.5h-35q-16 0 -27.5 11.5t-11.5 27.5
t11.5 27.5t27.5 11.5h35q16 0 27.5 -11.5t11.5 -27.5zM473 651v35q0 16 11.5 27.5t27.5 11.5t27.5 -11.5t11.5 -27.5v-35q0 -16 -11.5 -27.5t-27.5 -11.5t-27.5 11.5t-11.5 27.5zM512 553q-70 0 -119.5 -49.5t-49.5 -119.5t49.5 -119.5t119.5 -49.5t119.5 49.5t49.5 119.5
t-49.5 119.5t-119.5 49.5zM512 -85q95 0 182 37t150 100t100 150t37 182t-37 182t-100 150t-150 100t-182 37t-182 -37t-150 -100t-100 -150t-37 -182t37 -182t100 -150t150 -100t182 -37zM512 -128q-139 0 -257 68.5t-186.5 186.5t-68.5 257t68.5 257t186.5 186.5t257 68.5
t257 -68.5t186.5 -186.5t68.5 -257t-68.5 -257t-186.5 -186.5t-257 -68.5z" />
    <glyph glyph-name="dark" unicode="&#xe60f;" 
d="M425 668q-87 -26 -149.5 -109.5t-62.5 -174.5q0 -123 87 -209.5t210 -86.5q71 0 147 44t111 107q-41 -12 -84 -12q-123 0 -210 86.5t-87 209.5q0 32 11.5 74.5t26.5 70.5v0zM512 -85q95 0 182 37t150 100t100 150t37 182t-37 182t-100 150t-150 100t-182 37t-182 -37
t-150 -100t-100 -150t-37 -182t37 -182t100 -150t150 -100t182 -37zM512 -128q-139 0 -257 68.5t-186.5 186.5t-68.5 257t68.5 257t186.5 186.5t257 68.5t257 -68.5t186.5 -186.5t68.5 -257t-68.5 -257t-186.5 -186.5t-257 -68.5z" />
    <glyph glyph-name="or" unicode="&#xe610;" 
d="M832 224h-82q-6 0 -13 14q-9 21 -17 43q-6 19 -14 37q-5 14 -13 27q-7 12 -15 16h-39v-104l38 -5v-28h-142v28l33 6v249l-31 5v32h137q45 0 72 -9t39 -27t12 -48q0 -19 -7 -36q-7 -18 -21 -32t-34 -20q13 -5 23.5 -17t18 -25.5t16.5 -33t14 -28.5q6 -10 12 -11l13 -5v-28
zM464 302.5q-19 -37.5 -53 -58t-78 -20.5q-48 0 -79 20q-14 8 -27.5 24.5t-19.5 30.5q-15 36 -15 84.5t18 84.5q8 15 23 31.5t29 24.5q34 20 78 20q72 0 107.5 -40.5t35.5 -114.5q0 -49 -19 -86.5zM512 896q-139 0 -257 -68.5t-186.5 -186.5t-68.5 -257t68.5 -257
t186.5 -186.5t257 -68.5t257 68.5t186.5 186.5t68.5 257t-68.5 257t-186.5 186.5t-257 68.5zM666 517q-17 0 -27 -3v-124q3 -1 18 -1h16q23 0 36 17t13 52q0 29 -13 44t-43 15zM337.5 515q-32.5 0 -50 -32.5t-17.5 -98.5t17.5 -98.5t49.5 -32.5h1q21 0 35 15q15 16 23 46.5
t8 74.5q0 65 -17 95.5t-49.5 30.5z" />
    <glyph glyph-name="or-select" unicode="&#xe611;" 
d="M43 384q0 -95 37 -182t100 -150t150 -100t182 -37t182 37t150 100t100 150t37 182t-37 182t-100 150t-150 100t-182 37t-182 -37t-150 -100t-100 -150t-37 -182zM0 384q0 104 40.5 199t109 163.5t163.5 109t199 40.5q139 0 257 -68.5t186.5 -186.5t68.5 -257t-68.5 -257
t-186.5 -186.5t-257 -68.5q-104 0 -199 40.5t-163.5 109t-109 163.5t-40.5 199zM878 201h-94q-7 0 -14.5 16t-19.5 50l-16 42q-6 16 -15 30q-8 14 -17 18h-45v-118l44 -5v-33h-162v33l37 6v284l-36 7v36h157q52 0 83 -10q30 -10 44 -31t14 -56q0 -20 -8 -40q-8 -21 -24 -36
q-16 -17 -39 -23q15 -6 27 -20t20 -29l19 -38q10 -22 17 -33q6 -10 13 -12l15 -5v-33zM457 291q-8 -17 -26 -36.5t-34 -29.5q-39 -24 -90 -24q-54 0 -90 23q-16 9 -31.5 27.5t-21.5 35.5q-18 41 -18 96t21 97t59.5 64.5t88.5 22.5q83 0 123 -46.5t40 -130.5q0 -56 -21 -99v0
zM688 535h-3q-14 0 -28 -2v-142q4 -1 20 -1h19q26 0 40.5 19.5t14.5 58.5q0 34 -14.5 50.5t-48.5 16.5zM312 534q-37 0 -56.5 -37.5t-19.5 -112.5t19.5 -112t56.5 -37q24 0 41.5 17t26.5 52t9 86q0 74 -20 109t-57 35z" />
    <glyph glyph-name="colse" unicode="&#xe612;" 
d="M422 384l-408 -407l91 -91l407 408l407 -408l91 91l-408 407l408 407l-91 91l-407 -408l-407 408l-91 -91z" />
    <glyph glyph-name="or-down" unicode="&#xe613;" 
d="M560 -108q-8 -8 -22 -14t-26 -6t-26 6t-23 14l-409 410q-8 8 -14 22t-6 26t6 26t14 22t22.5 14t26 6t25.5 -6t22 -14l294 -293v723q0 28 19.5 48t48 20t48.5 -20t20 -48v-723l293 293q9 8 23 14t25.5 6t25.5 -6t22.5 -14t14.5 -22t6 -26t-6 -26t-14 -22z" />
    <glyph glyph-name="or-now" unicode="&#xe614;" 
d="M186 384q0 -89 43.5 -164t118.5 -118.5t164 -43.5t164 43.5t118.5 118.5t43.5 164t-43.5 164t-118.5 118.5t-164 43.5t-164 -43.5t-118.5 -118.5t-43.5 -164z" />
    <glyph glyph-name="or-up" unicode="&#xe615;" 
d="M560 876q-8 8 -22 14t-26 6t-26 -6t-23 -14l-409 -410q-8 -8 -14 -22t-6 -26t6 -26t14 -22q20 -20 48 -20t48 20l294 293v-723q0 -28 19.5 -48t48 -20t48.5 20t20 48v723l293 -293q9 -8 23 -14t25.5 -6t25.5 6t22.5 14t14.5 22t6 26t-6 26t-14 22z" />
  </font>
</defs>
</svg>
